Oculus (2014) O Espelho HDRip x264 + Legenda Oficial

468x60
O Espelho

Os irmãos Tim (Brenton Thwaits) e Kaylie (Karen Gillan) vivian felizes com seus pais até que Tim é acusado de matá-los e vai preso. Anos depois, sob custódia preventiva, Tim é libertado e tenta esquecer o que aconteceu, mas Kaylie tem certeza de que o verdadeiro responsável pelas morte é um espelho, herança da família, que seria assombrado. Dessa forma, ela convence o irmão a ajudá-la a quebrar a maldição. Ficou em 2º lugar no People Choice Awards no Toronto International Film Festival.nsbr1

Oculus capa poster cover

nsbr3

Oculus.2013.HDRIP.x264.AC3-TiTAN (834MB)
UPLOADED | SECUREUPLOAD | FILEOM | TUSFILES | FILEMONKEY

LEGENDA.OFICIAL.NEW.27.05.2014

nsbr2

Oculus.2013.HDRIP.x264.AC3-TiTAN_s

rp_Informações.png

General
Unique ID : 227400273919476530148438537722622478954 (0xAB13B31EE7EEE1329E68C95A5A958A6A)
Complete name : files/legendaoficial.com-Oculus.2013.HDRIP.x264.AC3-TiTAN.mkv
Format : Matroska
Format version : Version 2
File size : 834 MiB
Duration : 1h 38mn
Overall bit rate mode : Variable
Overall bit rate : 1 183 Kbps
Encoded date : UTC 2014-05-24 10:01:21
Writing application : mkvmerge v6.9.1 (‘Blue Panther’) 32bit built on Apr 18 2014 18:15:44
Writing library : libebml v1.3.0 + libmatroska v1.4.1

Video
ID : 1
Format : AVC
Format/Info : Advanced Video Codec
Format profile : High@L4.1
Format settings, CABAC : Yes
Format settings, ReFrames : 3 frames
Codec ID : V_MPEG4/ISO/AVC
Duration : 1h 38mn
Bit rate mode : Variable
Bit rate : 935 Kbps
Maximum bit rate : 40.0 Mbps
Width : 720 pixels
Height : 320 pixels
Display aspect ratio : 2.25:1
Frame rate : 25.000 fps
Color space : YUV
Chroma subsampling : 4:2:0
Bit depth : 8 bits
Scan type : Progressive
Bits/(Pixel*Frame) : 0.162
Stream size : 660 MiB (79%)
Writing library : x264 core 142 r2431 ac76440
Encoding settings : cabac=1 / ref=4 / deblock=1:-1:-1 / analyse=0x3:0x113 / me=umh / subme=8 / psy=1 / psy_rd=1.00:0.15 / mixed_ref=1 / me_range=16 / chroma_me=1 / trellis=1 / 8x8dct=1 / cqm=0 / deadzone=21,11 / fast_pskip=1 / chroma_qp_offset=-3 / threads=12 / lookahead_threads=2 / sliced_threads=0 / slices=4 / nr=0 / decimate=1 / interlaced=0 / bluray_compat=0 / constrained_intra=0 / bframes=3 / b_pyramid=1 / b_adapt=2 / b_bias=0 / direct=3 / weightb=1 / open_gop=0 / weightp=0 / keyint=24 / keyint_min=2 / scenecut=40 / intra_refresh=0 / rc_lookahead=24 / rc=crf / mbtree=1 / crf=18.5 / qcomp=0.60 / qpmin=10 / qpmax=51 / qpstep=4 / vbv_maxrate=40000 / vbv_bufsize=30000 / crf_max=0.0 / nal_hrd=vbr / filler=0 / ip_ratio=1.40 / aq=1:1.00
Default : Yes
Forced : No
Color primaries : BT.709-5, BT.1361, IEC 61966-2-4, SMPTE RP177
Transfer characteristics : BT.709-5, BT.1361
Matrix coefficients : BT.709-5, BT.1361, IEC 61966-2-4 709, SMPTE RP177

Audio
ID : 2
Format : AC-3
Format/Info : Audio Coding 3
Mode extension : CM (complete main)
Codec ID : A_AC3
Duration : 1h 38mn
Bit rate mode : Constant
Bit rate : 224 Kbps
Channel(s) : 2 channels
Channel positions : Front: L R
Sampling rate : 48.0 KHz
Bit depth : 16 bits
Compression mode : Lossy
Stream size : 158 MiB (19%)
Default : Yes
Forced : No

torrentads

cliqueparafazerodownload
By WordPress