RoboCop (2014) BDRip XviD Dual Audio

468x60
RoboCop capa poster cover 2014 520x300

2028. Já há vários anos os drones têm sido usados para fins militares mundo afora e agora a empresa OmniCorp deseja que eles sejam usados também para o combate ao crime nas grandes cidades. Entretanto, esta iniciativa tem recebido forte resistência nos Estados Unidos. Na intenção de conquistar o povo americano, Raymond Sellars (Michael Keaton) tem a ideia de criar um robô que tenha consciência humana, de forma a aproximá-lo à população. A oportunidade surge quando o policial Alex Murphy (Joel Kinnaman) sofre um atentado, que o coloca entre a vida e a morte.nsbr1

RoboCop capa poster cover 2014

nsbr3

Robocop.2014.BDRip.XviD.Dual.Audio-MAXi
UPLOADED | SECUREUPLOAD | FILEOM | TUSFILES | FREAKSHARE
FILEPARADOX | FILEMONKEY

baixar-legenda-oficial21

rp_Informações.png

General
Complete name : files/Robocop.2014.BDRip.XviD.Dual.Audio-MAXi.avi
Format : AVI
Format/Info : Audio Video Interleave
Format profile : OpenDML
Format settings : rec
File size : 918 MiB
Duration : 1h 57mn
Overall bit rate : 1 092 Kbps
Writing application : AVI-Mux GUI 1.17.8.3, Feb 16 201019:42:50

Video
ID : 0
Format : MPEG-4 Visual
Format profile : Advanced Simple@L5
Format settings, BVOP : 2
Format settings, QPel : No
Format settings, GMC : No warppoints
Format settings, Matrix : Default (H.263)
Codec ID : XVID
Codec ID/Hint : XviD
Duration : 1h 57mn
Bit rate : 828 Kbps
Width : 640 pixels
Height : 272 pixels
Display aspect ratio : 2.35:1
Frame rate : 23.976 fps
Color space : YUV
Chroma subsampling : 4:2:0
Bit depth : 8 bits
Scan type : Progressive
Compression mode : Lossy
Bits/(Pixel*Frame) : 0.198
Stream size : 695 MiB (76%)
Writing library : XviD 1.2.1 (UTC 2008-12-04)

Audio #1
ID : 1
Format : MPEG Audio
Format version : Version 1
Format profile : Layer 3
Mode : Joint stereo
Mode extension : MS Stereo
Codec ID : 55
Codec ID/Hint : MP3
Duration : 1h 57mn
Bit rate mode : Constant
Bit rate : 128 Kbps
Channel(s) : 2 channels
Sampling rate : 44.1 KHz
Compression mode : Lossy
Stream size : 108 MiB (12%)
Alignment : Aligned on interleaves
Interleave, duration : 26 ms (0.63 video frame)

nsbr2Robocop.2014.BDRip.XviD.Dual.Audio-MAXi_s

torrentads

cliqueparafazerodownload
By WordPress