[TORRENT] Trocando os Pés (2015) The Cobbler WEB-DL 720p + Legenda Oficial

468x60
Trocando os Pés poster

Um sapateiro solitário que vive nos tempos modernos em Nova York. Ele sente que sua vida não está indo para lugar nenhum, mas, ao descobrir uma herança familiar, ele ganha a capacidade de literalmente “andar os passos de outro homem” e ver o mundo de forma diferente.

nsbr1

Trocando os Pés poster

nsbr3

The.Cobbler.2014.720p.WEB-DL.DD5.1.H264-RARBG (2.9GB)
DOWNLOAD TORRENT | BAIXAR LEGENDA

Informações

Informações do Vídeo
Format : AVC
Format/Info : Advanced Video Codec
Format profile : High@L3.1
Format settings, CABAC : No
Format settings, ReFrames : 2 frames
Codec ID : V_MPEG4/ISO/AVC
Duration : 1h 38mn
Bit rate : 3 868 Kbps
Width : 1 280 pixels
Height : 690 pixels
Display aspect ratio : 1.85:1
Frame rate mode : Constant
Frame rate : 23.976 fps
Color space : YUV
Chroma subsampling : 4:2:0
Bit depth : 8 bits
Scan type : Progressive
Bits/(Pixel*Frame) : 0.183
Stream size : 2.65 GiB (89%)
Title : The.Cobbler.2014.720p.WEB-DL.DD5.1.H264-RARBG
Language : English
Default : Yes
Forced : No
Color primaries : BT.709
Transfer characteristics : BT.709
Matrix coefficients : BT.709
Color range : Limited

Informações do Áudio
Format : AC-3
Format/Info : Audio Coding 3
Mode extension : CM (complete main)
Format settings, Endianness : Big
Codec ID : A_AC3
Duration : 1h 38mn
Bit rate mode : Constant
Bit rate : 384 Kbps
Channel(s) : 6 channels
Channel positions : Front: L C R, Side: L R, LFE
Sampling rate : 48.0 KHz
Bit depth : 16 bits
Compression mode : Lossy
Stream size : 269 MiB (9%)
Title : The.Cobbler.2014.720p.WEB-DL.DD5.1.H264-RARBG
Language : English
Default : Yes
Forced : No

trailer

nsbr2

23327014714745205207_medium

28287894094862734315_medium

torrentads

cliqueparafazerodownload
By WordPress